MSX music arrangements on the net

Page 8/8
1 | 2 | 3 | 4 | 5 | 6 | 7 |

By ren

Paragon (1729)

ren's picture

08-03-2021, 20:09

Ha, I was mistaken #02 Starting Point is there, nice one! Cool

Profit:
Grospixels - Gromix EP #06 - A Tribute To Nemesis 2.cue

REM GENRE Blues
REM DATE 2020
PERFORMER "Grospixels"
TITLE "A Tribute To Nemesis 2"
FILE "Grospixels - Gromix EP #06 - A Tribute To Nemesis 2 - 01 A Tribute To Nemesis 2 - Part 1.flac" WAVE
	TRACK 01 AUDIO
		TITLE "Above the Horizon (Opening Theme)"
		INDEX 01 00:00:73
	TRACK 02 AUDIO
		TITLE "A Journey to the Start (Air Combat Theme)"
		INDEX 01 03:09:65
	TRACK 03 AUDIO
		TITLE "Killer Coast Land (Colossus Planet Theme)"
		INDEX 01 05:03:16
FILE "Grospixels - Gromix EP #06 - A Tribute To Nemesis 2 - 02 A Tribute To Nemesis 2 - Part 2.flac" WAVE
	TRACK 04 AUDIO
		TITLE "A Planet of Plants (Plant Planet Theme)"
		INDEX 01 00:32:20
	TRACK 05 AUDIO
		TITLE "Red Diamond (Ancient Planet Theme)"
		INDEX 01 03:32:05
	TRACK 06 AUDIO
		TITLE "Dancing Venus (Floating Continents Theme)"
		INDEX 01 06:26:61
FILE "Grospixels - Gromix EP #06 - A Tribute To Nemesis 2 - 03 A Tribute To Nemesis 2 - Part 3.flac" WAVE
	TRACK 07 AUDIO
		TITLE "Blazed Up (Flame Planet Theme)"
		INDEX 01 00:39:18
	TRACK 08 AUDIO
		TITLE "Frontier Disputes (Life Planet Theme)"
		INDEX 01 03:48:15
	TRACK 09 AUDIO
		TITLE "A Fighter (Boss)"
		INDEX 01 06:59:66
FILE "Grospixels - Gromix EP #06 - A Tribute To Nemesis 2 - 04 A Tribute To Nemesis 2 - Part 4.flac" WAVE
	TRACK 10 AUDIO
		TITLE "The War Is Over (Game Over)"
		INDEX 01 00:39:41
	TRACK 11 AUDIO
		TITLE "Don't Leave Me Alone (Fortress Planet Theme)"
		INDEX 01 00:45:04
	TRACK 12 AUDIO
		TITLE "Tears Began Gushing (Space Tricky Area Theme) (Extra Stage)"
		INDEX 01 03:33:02
	TRACK 13 AUDIO
		TITLE "Killer Love (Return Theme)"
		INDEX 01 06:17:13
FILE "Grospixels - Gromix EP #06 - A Tribute To Nemesis 2 - 05 A Tribute To Nemesis 2 - Part 5.flac" WAVE
	TRACK 14 AUDIO
		TITLE "Moonspin (Large Mothership Venom Theme)"
		INDEX 01 00:19:19
	TRACK 15 AUDIO
		TITLE "Powerful Waves (Boss Battleship Interior)"
		INDEX 01 03:19:54
	TRACK 16 AUDIO
		TITLE "Starting Point (Start!)"
		INDEX 01 05:56:24
	TRACK 17 AUDIO
		TITLE "A Dream of Dreamer (Ending Theme)"
		INDEX 01 06:05:28

(-upd: #08 offset fix)

By ren

Paragon (1729)

ren's picture

14-03-2021, 21:21

Great support & enthusiasm!

If you've been thinking 'shitty stuttery player', turns out Chromium 89 broke Web Audio (ScriptProcessorNode)

(One user reports: 'Windows only, macOS seems to work ok')

By LoloGP

Supporter (7)

LoloGP's picture

15-03-2021, 18:47

Hi everybody ! Thanks a lot for the cue sheet and for the nice comments.
If you want to listen to the album, the best place is the Bancamp page because it streams the remastered version :
https://grospixels.bandcamp.com/album/gromix-ep-06-a-tribute...

By ren

Paragon (1729)

ren's picture

15-03-2021, 21:32

Hi LoloGP,

I downloaded the album FLAC zip about a week ago (thanks!), I just re-downloaded, and notice the files are actually different. Also my cue sheet doesn't quite 'fit' anymore, need to re-align Smile

Did you actually did a remaster last week / just now? At first glance I notice it's less loud overall, and e.g. the snares/drums in 'A Fighter' are less loud. OTOH e.g. 'Don't Leave Me Alone' sounds a bit louder now, more high/treble.

Had in mind to give some feedback on the album/tracks, haven't gotten around to that yet.. Smile

By LoloGP

Supporter (7)

LoloGP's picture

16-03-2021, 18:00

Quote:

Did you actually did a remaster last week / just now? At first glance I notice it's less loud overall, and e.g. the snares/drums in 'A Fighter' are less loud. OTOH e.g. 'Don't Leave Me Alone' sounds a bit louder now, more high/treble.

Sorry bout that! I assure you the mixes won't change anymore and the Bandcamp files won't be updated, I'm satisfied with them and don't have the competences to do better. I've spent a lot of time, recently, remixing everything using my new monitoring headphones (Sennheiser HD25). If you compare to the versions on Youtube or Soundcloud, the mix should be a bit louder and more clear, and the low-ends should be less muddy, making the songs sound not-to-crappy when listened in a car audio system.

It's still amateur production anyway Smile

By ren

Paragon (1729)

ren's picture

21-03-2021, 18:04

Haha, no need to apologize, tweak as much as you want. Perhaps leave a message when you decide to do another mix/master anyway Smile
I do think there are some differences between tracks, where I think one sounds a bit better than the other, and yeah, the album might reach another level when mixed/mastered professionally, but for amateur level this is pretty great right Smile Perhaps you should reach out to the sound team / composers? (Might not be impossible to reach Kazuhiko Uehara and/or Motoaki Furukawa and/or Iku Mizutani :) Gradius 2 MSX is a masterpiece, game & soundtrack wise, a proper professional album release wouldn't be out of place I think.

If you would still like a bit of extra exposure, you can opt for submitting a news post here, which you van submit via the menu above (news > submit news). I think it gets automatically published on MRC's Fakebook channel then as well.

I think it deserves one anyway. I still think the lack of response on this is pretty lame Running Naked in a Field of Flowers
It might not be everyone's cup of tea (overall), but there must be something for everyone there? I did notice it was a bit to digest / go through, esp. w/ the dressing-up perhaps. So my advice would be to get a download and listen by cue sheet (helps me Smile)

By LoloGP

Supporter (7)

LoloGP's picture

30-03-2021, 11:21

Thanks for the advice ! News submited Smile

Page 8/8
1 | 2 | 3 | 4 | 5 | 6 | 7 |